Navigacija
Lista poslednjih: 16, 32, 64, 128 poruka.

Premiere cs4 video playback problem

[es] :: Video produkcija :: Premiere cs4 video playback problem

[ Pregleda: 1329 | Odgovora: 3 ] > FB > Twit

Postavi temu Odgovori

Autor

Pretraga teme: Traži
Markiranje Štampanje RSS

masterminded

Član broj: 91273
Poruke: 96
*.adsl-a-8.sezampro.rs.



+1 Profil

icon Premiere cs4 video playback problem10.04.2011. u 13:24 - pre 108 meseci
Imam problem sa premiere CS4 verzijom, ne mogu da imam video preview u monitoru. Zapravo, kao da se pokrece, ali samo par frejmova. Audio preview ide normalno. Pomilsio sam da nije nesto u osnovnom podesavanju, istrazivao i nista nisam pronasao. Podesio sam projekt na PAL, dakle nije do toga. Problem je sa avi fajlovima snimljenim sa canon s32is i nikon d5000 kamerom. Kad sam u isti projekat ubacio neki film (isto avi) problem nije postojao.

Tek ulazim u pricu oko video montaze, tako da su prvi koraci frustrirajuci...
Inace imam intel dual core D805, 2gb rama, ati ax550 grafiku.
Od skoro sam nabacioo XP 64bit sp2.

Pomagajte!

[Ovu poruku je menjao masterminded dana 10.04.2011. u 16:52 GMT+1]
 
Odgovor na temu

Stranger2
Stranger2

Član broj: 143429
Poruke: 2572
*.adsl.net.t-com.hr.

Sajt: www.videomajstor.com


+43 Profil

icon Re: Premiere cs4 video playback problem11.04.2011. u 15:29 - pre 108 meseci
Pa mozda ti fotoaparati jednsotavno krosrriste neki format koji premiere ne podrzabva. Izmdju ostalog progledaj support sekcije na sajtovima od Canon i Nikon fotoaparata. Mozda imaju neki plug-in za premieree da bi otvarao i njihove formate.

Posto se ipak radi sam oo dva formata koji ne rade za tekve slucajeve obicno je najjednosatvnije resenje da jednsotavno te fajlove prethodno konvertujes u neki format koji Premiere podrzava.

...inace otvori neki od tigh .AVI fajlova sa kojima je bilo problema u programu MediaInfo pa prebaci na tekstualne podatke. I kopiraj ih ovde u forumku da vidimo informacije o tom fajlu. Onda cu ti preporuciti u sta da konvertujes i kako da ne gubis kvalitet.
 
Odgovor na temu

masterminded

Član broj: 91273
Poruke: 96
*.adsl-a-1.sezampro.rs.



+1 Profil

icon Re: Premiere cs4 video playback problem11.04.2011. u 16:50 - pre 108 meseci
Hvala na odgovoru. Sve radi super kada prethodno konvertujem.
za nikonov d5000, ovo dobijam kroz media info:

General
Format : AVI
Format/Info : Audio Video Interleave
File size : 150 MiB
Duration : 1mn 9s
Overall bit rate : 18.2 Mbps

Video
ID : 0
Format : JPEG
Codec ID : MJPG
Duration : 1mn 9s
Bit rate : 18.0 Mbps
Width : 1 280 pixels
Height : 720 pixels
Display aspect ratio : 16:9
Frame rate : 24.000 fps
Color space : YUV
Chroma subsampling : 4:2:2
Bit depth : 8 bits
Compression mode : Lossy
Bits/(Pixel*Frame) : 0.814
Stream size : 148 MiB (99%)

Audio
ID : 1
Format : PCM
Format settings, Endianness : Little
Format settings, Sign : Signed
Codec ID : 1
Codec ID/Hint : Microsoft
Duration : 1mn 9s
Bit rate mode : Constant
Bit rate : 176.4 Kbps
Channel(s) : 1 channel
Sampling rate : 11.025 KHz
Bit depth : 16 bits
Stream size : 1.45 MiB (1%)
Interleave, duration : 1000 ms (24.00 video frames)
Interleave, preload duration : 1000 ms

Za Canon s3IS imam sledece:

Format : AVI
Format/Info : Audio Video Interleave
File size : 95.5 MiB
Duration : 49s 633ms
Overall bit rate : 16.1 Mbps
Mastered date : SAT DEC 19 12:28:52 2009
Writing application : CanonMVI03

Video
ID : 0
Format : JPEG
Codec ID : MJPG
Duration : 49s 633ms
Bit rate : 14.7 Mbps
Width : 640 pixels
Height : 480 pixels
Display aspect ratio : 4:3
Frame rate : 30.000 fps
Color space : YUV
Chroma subsampling : 4:2:2
Bit depth : 8 bits
Scan type : Progressive
Compression mode : Lossy
Bits/(Pixel*Frame) : 1.598
Stream size : 87.1 MiB (91%)

Audio
ID : 1
Format : PCM
Format settings, Endianness : Little
Format settings, Sign : Signed
Codec ID : 1
Codec ID/Hint : Microsoft
Duration : 49s 633ms
Bit rate mode : Constant
Bit rate : 1 411.2 Kbps
Channel(s) : 2 channels
Sampling rate : 44.1 KHz
Bit depth : 16 bits
Stream size : 8.35 MiB (9%)
Interleave, duration : 993 ms (29.78 video frames)
Interleave, preload duration : 1000 ms
 
Odgovor na temu

Stranger2
Stranger2

Član broj: 143429
Poruke: 2572
*.adsl.net.t-com.hr.

Sajt: www.videomajstor.com


+43 Profil

icon Re: Premiere cs4 video playback problem11.04.2011. u 23:22 - pre 108 meseci
To deluje kao standardni MiJPEG i trebao bi da radi bez problema. Jedino sto mozda nije dobro podeseno:
Citat:
Color space : YUV
Chroma subsampling : 4:2:2


Pogledaj u properties ili nekakvim podesavanjima koje su ponudjena za svaki klip u premieru da podesis prema ovome podatku. Mozda je na primer podeseno za 4:2:0 pa ne ume da protumaci 4:2:2 boje pa zato ne prikazuje sliku. U svakom slucaju otvaraj opcije od klipova koji su ukljuceni u projekat i cackaj po opcijama dok ne dobijes sliku...


Nadam se da konvertovanje ipak nece biti potrebno... pa necu ovaj put da pisem predloge za konvertovanje. Ako bas ne proradi onda javi.
 
Odgovor na temu

[es] :: Video produkcija :: Premiere cs4 video playback problem

[ Pregleda: 1329 | Odgovora: 3 ] > FB > Twit

Postavi temu Odgovori

Navigacija
Lista poslednjih: 16, 32, 64, 128 poruka.